PSPx форум

PSPx форум (https://www.pspx.ru/forum/index.php)
-   Фильмы, мультфильмы и Аниме (https://www.pspx.ru/forum/forumdisplay.php?f=399)
-   -   [Сериал] Санка Рэа / Sankarea (https://www.pspx.ru/forum/showthread.php?t=96739)

Partum 29.04.2012 14:03

[Сериал] Санка Рэа / Sankarea
 

さんかれあ

Год выпуска: 2012 г.
Страна: Япония
Жанр: комедия, романтика
Тип: Аниме
Продолжительность: 25 мин.
Количество серий: 12+1
Язык в видео: Japan; Rus Sub
Режиссер: Омата Синъити
Студия:http://i1.fastpic.ru/big/2010/0116/1...5ed911611e.png

Описание:
16-летний Тихиро Фуруя – сын буддистского священника и потому куда проще относится к сверхъестественному. Возможно, из-за ранней смерти матери парень с детства одержим темой зомби, возвращения из мертвых. Фуруя коллекционирует фильмы, мангу, фигурки и даже мечтает жить с… ну, вы поняли. Впрочем, одноклассники считают Тихиро суровым неформалом, а кузина Ранко находит его увлечение весьма романтичным. Вот только нелепая гибель домашнего кота надломила героя, и он решил оживить любимца тайным зельем из древнего манускрипта. Но это в кино все просто, а в честном аниме юному некроманту надо тренироваться, что он и делает по ночам в заброшенном доме. И вот однажды начинающему чернокнижнику послышался женский крик…
Крик шел от колодца во дворе и, присмотревшись, Фуруя узнал местную знаменитость – Рэа, первую красавицу и дочь директора женской академии Санка. Тихиро, как честный парень, не стал таиться, и вскоре ребята разговорились. Оказалось, Рэа иногда приходит в «проклятый дом», чтобы выкричать и выплакать грусть-тоску «девушки из высшего общества». Матери у нее тоже нет, а деспотичный отец контролирует каждый шаг дочери, делая ее жизнь невыносимой. Санка часто задумывалась о смерти как избавлении от кошмара, потому занятия Тихиро вызвали у нее не ужас, а неподдельный интерес. В итоге лукавая судьба дала молодым людям то, чего они хотели… или нет? Пускай теперь сами разбираются!
© World Art

Информационные ссылки: AniDB || World Art || MAL

Исходник: BDrip [Beatrice-raws]
Формат видео: MP4
Видео: h264, 960x544, crf18.5-19, 23.976 fps
Аудио: AAC-HEv1, 48000Hz, ~128 Kbps, 2ch
Русские субтитры: [Dreamers Team]
Размер файла: ~150мб

MediaInfo
General
Complete name : C:\Sankarea 13 [PS Vita].mp4
Format : MPEG-4
Format profile : Base Media
Codec ID : isom
File size : 155 MiB
Duration : 23mn 41s
Overall bit rate mode : Variable
Overall bit rate : 916 Kbps
Encoded date : UTC 2013-01-16 15:42:57
Tagged date : UTC 2013-01-16 15:42:57

Video
ID : 1
Format : AVC
Format/Info : Advanced Video Codec
Format profile : High@L3.1
Format settings, CABAC : Yes
Format settings, ReFrames : 8 frames
Codec ID : avc1
Codec ID/Info : Advanced Video Coding
Duration : 23mn 40s
Bit rate : 786 Kbps
Maximum bit rate : 8 199 Kbps
Width : 960 pixels
Height : 544 pixels
Display aspect ratio : 16:9
Frame rate mode : Constant
Frame rate : 23.976 fps
Color space : YUV
Chroma subsampling : 4:2:0
Bit depth : 8 bits
Scan type : Progressive
Bits/(Pixel*Frame) : 0.063
Stream size : 133 MiB (86%)
Writing library : x264 core 128 r2216+688+33 06dac27 tMod+MixAQ [8-bit@4:2:0 X86_64]
Encoding settings : cabac=1 / ref=8 / deblock=1:0:0 / analyse=0x3:0x133 / me=umh / subme=10 / psy=1 / fade_compensate=0.00 / psy_rd=0.90:0.00 / mixed_ref=1 / me_range=24 / chroma_me=1 / trellis=2 / 8x8dct=1 / cqm=0 / deadzone=21,11 / fast_pskip=0 / chroma_qp_offset=-2 / threads=9 / lookahead_threads=1 / sliced_threads=0 / nr=0 / decimate=1 / interlaced=0 / bluray_compat=0 / constrained_intra=0 / fgo=0 / bframes=10 / b_pyramid=2 / b_adapt=2 / b_bias=0 / direct=1 / weightb=1 / open_gop=0 / weightp=2 / keyint=250 / keyint_min=23 / scenecut=40 / intra_*******=0 / rc_lookahead=60 / rc=crf / mbtree=1 / crf=19.0000 / qcomp=0.70 / qpmin=4 / qpmax=34 / qpstep=4 / vbv_maxrate=17500 / vbv_bufsize=14000 / crf_max=0.0 / nal_hrd=none / ip_ratio=1.40 / aq=3 / aq-strength=1.00 / aq-sensitivity=10.00 / aq-ifactor=1.00 / aq-pfactor=1.00 / aq-bfactor=1.00 / aq2=0
Encoded date : UTC 2013-01-16 15:42:57
Tagged date : UTC 2013-01-16 15:42:59

Audio
ID : 2
Format : AAC
Format/Info : Advanced Audio Codec
Format profile : HE-AAC / LC
Codec ID : 40
Duration : 23mn 41s
Bit rate mode : Variable
Bit rate : 127 Kbps
Maximum bit rate : 143 Kbps
Channel(s) : 2 channels
Channel positions : Front: L R
Sampling rate : 48.0 KHz / 24.0 KHz
Compression mode : Lossy
Delay relative to video : 125ms
Stream size : 21.5 MiB (14%)
Encoded date : UTC 2013-01-16 15:42:58
Tagged date : UTC 2013-01-16 15:42:59



CLI
--crf 18.5 --preset medium --tune animation --level 3.1 --ref 8 --aq-mode 3 --aq-strength 1.0 --deblock 0:0 --merange 32 --bframes 10 --b-adapt 2 --trellis 2 --no-fast-pskip --qpmax 24 --psy-rd 1.00:0.00 --threads 9 --qcomp 0.72 --vbv-maxrate 17500 --vbv-bufsize 14000 --partitions all --subme 10 --me umh --extra:


COOLERbyPSP 08.09.2012 01:44


Дальше БД-рипов пока нет :c
MediaInfo
Цитата:

General
Complete name : E:\YandexDisk\Sankarea [PS Vita]\Sankarea 01 [PS Vita].mp4
Format : MPEG-4
Format profile : Base Media
Codec ID : isom
File size : 173 MiB
Duration : 24mn 11s
Overall bit rate mode : Variable
Overall bit rate : 1 001 Kbps
Encoded date : UTC 2012-09-07 21:09:39
Tagged date : UTC 2012-09-07 21:09:39

Video
ID : 1
Format : AVC
Format/Info : Advanced Video Codec
Format profile : High@L3.1
Format settings, CABAC : Yes
Format settings, ReFrames : 8 frames
Codec ID : avc1
Codec ID/Info : Advanced Video Coding
Duration : 24mn 11s
Bit rate : 871 Kbps
Maximum bit rate : 10.6 Mbps
Width : 960 pixels
Height : 544 pixels
Display aspect ratio : 16:9
Frame rate mode : Constant
Frame rate : 23.976 fps
Color space : YUV
Chroma subsampling : 4:2:0
Bit depth : 8 bits
Scan type : Progressive
Bits/(Pixel*Frame) : 0.070
Stream size : 151 MiB (87%)
Writing library : x264 core 125 r2200+666+31 2d8fe44 tMod+MixAQ [8-bit@all X86_64]
Encoding settings : cabac=1 / ref=8 / deblock=1:0:0 / analyse=0x3:0x133 / me=umh / subme=10 / psy=1 / fade_compensate=0.00 / psy_rd=1.00:0.00 / mixed_ref=1 / me_range=32 / chroma_me=1 / trellis=2 / 8x8dct=1 / cqm=0 / deadzone=21,11 / fast_pskip=0 / chroma_qp_offset=-2 / threads=9 / lookahead_threads=1 / sliced_threads=0 / nr=0 / decimate=1 / interlaced=0 / bluray_compat=0 / constrained_intra=0 / fgo=0 / bframes=10 / b_pyramid=2 / b_adapt=2 / b_bias=0 / direct=1 / weightb=1 / open_gop=0 / weightp=2 / keyint=250 / keyint_min=23 / scenecut=40 / intra_*******=0 / rc_lookahead=40 / rc=crf / mbtree=1 / crf=18.5000 / qcomp=0.72 / qpmin=0 / qpmax=24 / qpstep=4 / vbv_maxrate=17500 / vbv_bufsize=14000 / crf_max=0.0 / nal_hrd=none / ip_ratio=1.40 / aq=3 / aq-strength=1.00 / aq-sensitivity=10.00 / aq-ifactor=1.00 / aq-pfactor=1.00 / aq-bfactor=1.00 / aq2=0
Encoded date : UTC 2012-09-07 21:09:39
Tagged date : UTC 2012-09-07 21:09:41

Audio
ID : 2
Format : AAC
Format/Info : Advanced Audio Codec
Format profile : HE-AAC / LC
Codec ID : 40
Duration : 24mn 11s
Bit rate mode : Variable
Bit rate : 127 Kbps
Maximum bit rate : 141 Kbps
Channel(s) : 2 channels
Channel positions : Front: L R
Sampling rate : 48.0 KHz / 24.0 KHz
Compression mode : Lossy
Delay relative to video : -3s 337ms
Stream size : 21.9 MiB (13%)
Encoded date : UTC 2012-09-07 21:09:40
Tagged date : UTC 2012-09-07 21:09:41

CLI
Цитата:

--crf 18.5 --preset medium --tune animation --level 3.1 --ref 8 --aq-mode 3 --aq-strength 1.0 --deblock 0:0 --merange 32 --bframes 10 --b-adapt 2 --trellis 2 --no-fast-pskip --qpmax 24 --psy-rd 1.00:0.00 --threads 9 --qcomp 0.72 --vbv-maxrate 17500 --vbv-bufsize 14000 --partitions all --subme 10 --me umh --extra:

Отличия от ТВ-версии можно посмотреть здесь.
В первой серии их нет :'D

Partum, добей уже ТВ-рип)

toxanik 08.09.2012 09:40

Partum как написал, что проблемы с экзменами в школе, так и с концами. Посочувствуем велечине его проблем, что уж там. Я бы особо не надеялся.
Лол, описание изменений третьего блюрика повергло меня в хохот.

COOLERbyPSP 08.09.2012 10:35

Дедуля меня добивает :'D
Таки сорвался и смотрю HDTV-рипы.

COOLERbyPSP 16.01.2013 19:15

crf19 psy-rd 0.7-0.9
что-то xvid4psp не скушал кастомный CLI, а я и не заметил)

Sankarea 07 [PS Vita]
Sankarea 08 [PS Vita]
Sankarea 09 [PS Vita]
Sankarea 10 [PS Vita]
Sankarea 11 [PS Vita]
Sankarea 12 [PS Vita]
Sankarea 13 [PS Vita]

vAST 17.01.2013 13:48

первая серия не качается ... ссылка не существует

COOLERbyPSP 17.01.2013 15:57

Только что нажал на ссылку - началось скачивание ._.
Сейчас поправлю.

vAST 21.01.2013 10:24

вот теперь качается. А сериалом заинтересовался, после прочтения пары выпусков манги, очень понравился юмор, думаю в аниме дед отжигает круче.

COOLERbyPSP 24.01.2013 04:10

А я после сериала начал мангу читать. И не зря)

toxanik 24.01.2013 10:38

А я, а я... заглянул в мангу посмотреть на сцену в ванной. Не зря. Ну, наверное не зря. Правда сериал пока не осилил, есть ещё десяток вещей, которые стоит посмотреть раньше ;D

COOLERbyPSP 24.01.2013 11:25

Ахаха, ничиджо посмотри, это шедевр)

vAST 25.01.2013 18:11

может это, мангу переведенную еще в шапку бросите? Я бы дочитал, но не помню где качал.

COOLERbyPSP 25.01.2013 18:45

Я здесь читаю.
http://mangachan.ru/manga/7532-sankarea.html
Скачать можно с рутрекера, но там до 27й главы, кажется.
Сайт переводчиков у меня не открывается =\
http://livingflcl.evangelion-not-end.ru/

toxanik 25.01.2013 19:48

COOLERbyPSP, сайт переводчиков у меня открылся. Ну просто, к слову.

COOLERbyPSP 25.01.2013 20:12

Угу, тоже заработал.


Текущее время: 21:49. Часовой пояс GMT +3.

Powered by vBulletin® Version 3.8.7
Copyright ©2000 - 2020, vBulletin Solutions, Inc. Перевод: zCarot
PSPx Forum - Сообщество фанатов игровых консолей.